#TITLE:Six Feet Under;
#SUBTITLE:Dig Dug;
#ARTIST:Injury;
#TITLETRANSLIT:;
#SUBTITLETRANSLIT:;
#ARTISTTRANSLIT:;
#CREDIT:;
#BANNER:Six Feet Under.png;
#BACKGROUND:Six Feet Under-bg.png;
#LYRICSPATH:;
#CDTITLE:!Syrus-CDTitle.png;
#MUSIC:Six Feet Under.mp3;
#OFFSET:-0.031;
#SAMPLESTART:56.038;
#SAMPLELENGTH:16.000;
#SELECTABLE:YES;
#BPMS:0.000=120.002,16.000=240.022;
#STOPS:401.500=0.500
,543.000=0.500
;
#BGCHANGES:;
// cache tags:
#FIRSTBEAT:0.000;
#LASTBEAT:559.500;
#SONGFILENAME:Songs/Music V.I.P ^_^/Six Feet Under (Syrus)/Six Feet Under.sm;
#HASMUSIC:1;
#HASBANNER:1;
#MUSICLENGTH:148.062;
// end cache tags

//---------------dance-single - ----------------
#NOTES:
     dance-single:
     :
     Hard:
     13:
     1.000,1.000,1.000,0.000,0.878,1134.000,232.000,0.000,0.000,0.000:
0010
0001
0010
0001
0100
0010
0100
0010
1000
0100
1000
1000
0000
0100
0010
0001
,
0110
0001
0110
1000
0110
0001
1010
0100
1010
0100
0011
1000
0011
0100
0011
1000
,
0110
0001
0110
1000
0011
0100
1010
0001
1100
0001
0110
0110
0000
0000
0000
0000
,
1010
0000
0100
0000
0011
0000
0100
0000
1001
0000
0010
0100
0001
0100
0010
0100
,
1001
0001
0010
0100
0010
0001
0010
0100
,
1000
0100
0010
0001
0010
0100
0010
0001
,
0110
0000
0110
0101
0000
0101
1010
0101
,
1001
0010
1001
0100
,
1100
0010
0001
0100
0010
0100
0001
0010
,
0100
0010
1000
0100
1000
0100
0001
0100
,
0011
0000
1001
0110
0000
1100
0110
0011
,
1010
0010
1001
0100
,
1001
1000
0010
0100
0010
1000
0100
0010
,
0001
0010
0100
1000
0100
0010
0100
0010
,
1001
0000
0110
1010
0000
0110
1001
1010
,
1001
1000
0011
0100
,
0011
0100
1000
0100
1000
0010
0100
0010
,
0100
0001
0010
0001
0010
0100
0010
0100
,
1010
0000
1100
0011
0000
1100
1010
0101
,
0011
1000
0101
0010
,
0110
0010
0100
1000
0100
0010
0100
0010
,
0001
0100
0010
0100
0001
0010
0100
0010
,
1100
0000
0101
1010
0000
0110
1100
0011
,
0101
0001
1010
1000
,
0011
0001
0010
0100
0010
0001
0010
0001
,
0010
0100
1000
0100
0010
0100
0010
1000
,
0011
0000
0101
0011
0000
1100
0110
0011
,
0110
0000
0001
0000
1000
0001
1000
0001
,
1001
1000
0110
0001
1100
0010
1001
0100
,
1001
0010
1001
0100
0011
1000
0011
1000
,
0110
0000
1100
1001
0000
1001
0101
1001
,
1010
0100
1001
0010
,
0110
0001
0110
1000
0110
0001
0110
0001
,
1100
0010
1100
0001
1100
0010
1100
0001
,
0110
0000
0110
1010
0000
0101
0011
0101
,
1100
0010
1010
0100
,
0010
0100
0010
0100
0010
0001
0010
0001
,
0100
1000
0100
1000
0100
0001
0100
0001
,
0010
1000
0010
1000
0001
1000
0010
0100
,
0001
0100
0010
1000
0010
0100
0001
0100
,
0001
0010
0100
1000
0100
0010
0100
1000
,
0100
0010
0001
0010
0100
0010
0001
0010
,
0100
0010
1000
0010
0100
0001
0100
0010
,
0100
0001
0010
0001
0100
0001
1000
0010
,
0001
0001
0100
0010
0010
0100
1000
1000
,
0010
0100
0100
0001
0010
0010
0100
0001
,
0001
0100
0001
1000
0100
0001
0100
0010
,
1000
0001
0100
0001
0100
0010
1000
0100
,
1000
1000
0100
0001
0001
0010
0100
0100
,
0010
1000
1000
0100
0001
0001
0100
0001
,
0001
0010
1000
1000
0100
0001
0010
0001
,
0100
0010
1000
0100
0010
0100
0001
0100
,
1000
0000
0100
0000
0010
0000
0100
0000
0000
0001
0000
0000
0010
0000
0000
0100
0000
0000
0010
0000
0000
0001
0000
0000
,
0100
0000
0000
0010
0000
0000
1000
0000
0000
0100
0000
0000
0001
0000
0010
0000
0100
0000
1000
0000
0000
0100
0000
0000
,
0011
0000
1100
0011
0000
0011
1001
1100
,
1001
0000
0000
0001
0000
0000
1010
0100
0001
0010
0000
0000
,
0010
0000
0100
0000
0001
0000
0010
0000
0000
0100
0000
0000
0010
0000
0000
0001
0000
0000
0100
0000
0000
0001
0000
0000
,
1000
0000
0000
0001
0000
0000
0100
0000
0000
0010
0000
0000
0001
0000
0010
0000
0100
0000
1000
0000
0000
0100
0000
0000
,
0011
0000
1100
1001
0000
0110
0101
0110
,
1010
0000
0000
0000
0000
0000
0001
0000
0000
0000
0000
0000
1000
0100
0010
0001
0000
0000
1000
0000
0000
0000
0000
0000
,
0110
0000
1000
0000
0100
0000
0010
0000
0000
0001
0000
0000
0010
0000
0000
0100
0000
0000
0010
0000
0000
0001
0000
0000
,
0010
0000
0000
1000
0000
0000
0010
0000
0000
1000
0000
0000
0010
0000
0001
0000
1000
0000
0100
0000
0000
0001
0000
0000
,
0110
0000
0110
1001
0000
1001
0110
1001
,
0110
0000
0000
1000
0000
0000
1010
0001
0010
0100
0000
0000
,
1010
0000
0001
0000
0100
0000
0010
0000
0000
0100
0000
0000
0010
0000
0000
0100
0000
0000
0010
0000
0000
0001
0000
0000
,
0100
0000
0010
0000
0010
0000
0100
0000
0000
0010
0000
0000
0100
0000
0000
0001
0000
0000
1000
0000
0000
0100
0000
0000
,
0010
0001
0010
0100
1000
0100
0010
0100
1000
0100
0010
0001
,
0010
0000
0100
1000
0100
0010
0001
0000
0000
0000
0000
0000
1000
0000
0000
0000
0000
0000
0010
0000
0000
0000
0000
0000
,
1001
0000
0010
0000
0100
0000
1000
0000
0000
0010
0000
0000
1000
0100
0010
0001
0000
0000
1000
0000
0000
0000
0000
0000
,
1000
0100
0010
0001
0000
0000
0010
0000
0000
1000
0000
0000
0011
0000
0100
0000
1000
0000
0010
0000
0000
0001
0000
0000
,
1000
0010
0100
0001
0000
0000
0010
0000
0000
0000
0000
0000
0001
0100
0010
1000
0000
0000
0100
0000
0000
0000
0000
0000
,
1000
0100
0010
1000
0000
0000
0001
0000
0000
0010
0000
0000
1100
0000
0010
0000
1000
0000
0010
0000
0000
0100
0000
0000
,
0011
0000
0100
0000
0001
0000
0010
0000
0000
1000
0000
0000
0100
0010
1000
0001
0000
0000
0100
0000
0000
0000
0000
0000
,
1000
0001
1000
0001
0000
0000
0010
0000
0000
0000
0000
0000
0110
0000
1000
0000
0001
0000
1000
0000
0000
0010
0000
0000
,
0001
0010
0100
0001
0000
0000
1000
0000
0000
0000
0000
0000
0010
0100
0001
1000
0000
0000
0010
0000
0000
0000
0000
0000
,
0001
1000
0010
0100
0000
0000
1000
0000
0000
0000
0000
0000
1001
0000
1000
0000
0001
0000
1001
0000
0000
0010
0000
0000
,
0100
0000
0010
0000
0100
0000
1000
0000
0000
0010
0000
0000
0100
0010
1000
0001
0000
0000
0010
0000
0000
0000
0000
0000
,
0001
0010
1000
0001
0000
0000
0100
0000
0000
0000
0000
0000
1100
0000
0001
0000
0100
0000
0010
0000
0000
0000
0000
0000
,
1000
0100
0001
1000
0000
0000
0001
0000
0000
0000
0000
0000
1000
0100
0010
0001
0000
0000
0100
0000
0000
0000
0000
0000
,
0001
0010
0100
1000
0000
0000
0010
0000
0000
0000
0000
0000
0101
0000
0010
0000
0001
0000
0010
0000
0000
0000
0000
0000
,
1010
0000
0100
0000
1000
0000
0100
0000
0000
0001
0000
0000
1000
0100
0010
0100
0000
0000
0001
0000
0000
0000
0000
0000
,
0001
0010
0100
0010
0000
0000
1000
0000
0000
0000
0000
0000
1001
0000
0100
0000
0001
0000
1000
0000
0000
0010
0000
0000
,
0001
1000
0100
0001
0000
0000
0010
0000
0000
0000
0000
0000
1000
0001
0010
1000
0000
0000
0100
0000
0000
0000
0000
0000
,
0010
0100
1000
0001
0000
0000
1000
0000
0000
0000
0000
0000
0110
0000
0001
0000
0001
0000
0110
0000
0000
0100
0000
0000
,
1010
0000
0100
0000
0001
0000
0100
0000
0000
0010
0000
0000
0100
0000
0000
0010
0000
0000
1000
0000
0000
0100
0000
0000
,
1000
0000
0000
0001
0000
0000
0100
0000
0000
0010
0000
0000
1000
0000
0100
0000
0010
0000
0001
0000
0000
1000
0000
0000
,
0110
0000
1100
0110
0000
0110
1001
0101
,
1001
0000
0000
0010
0000
0000
1010
0100
0001
1000
0000
0000
,
1001
0000
0010
0000
0100
0000
0001
0000
0000
0100
0000
0000
0001
0000
0000
0100
0000
0000
0010
0000
0000
1000
0000
0000
,
0100
0000
0000
0010
0000
0000
0001
0000
0000
0100
0000
0000
0010
0000
0100
0000
1000
0000
0100
0000
0000
0010
0000
0000
,
1001
0000
1010
0101
0000
1001
0110
1010
,
0110
0000
0000
1000
0000
0000
0011
0100
1000
0100
0000
0000
,
1100
0000
0010
0000
0001
0000
0010
0000
0000
1000
0000
0000
0001
0000
0000
0010
0000
0000
0001
0000
0000
1000
0000
0000
,
0010
0000
0000
0100
0000
0000
0010
0000
0000
1000
0000
0000
0100
0000
0010
0000
0100
0000
0010
0000
0000
1000
0000
0000
,
0110
0000
1001
0101
0000
1010
1100
0011
,
1001
0000
0000
0100
0000
0000
1001
0010
0100
1000
0000
0000
,
1001
0000
0100
0000
0010
0000
0001
0000
0000
1000
0000
0000
0100
0000
0000
0010
0000
0000
0100
0000
0000
0010
0000
0000
,
0001
0000
0000
0010
0000
0000
0100
0000
0000
0010
0000
0000
0100
0000
1000
0000
0010
0000
0001
0000
0000
0100
0000
0000
,
1010
0000
0110
0101
0000
1010
0110
0011
,
1100
0000
0000
0100
0000
0000
1010
0100
0100
0001
0000
0000
,
1000
0100
0010
0001
0100
0000
1000
0100
0010
1000
0100
0001
,
1000
0000
0010
0000
0100
0000
1000
0000
0010
0000
1000
0000
0001
0000
0100
1000
0100
0010
0001
0000
0000
0000
0000
0000
,
1001
0000
0100
0000
1001
0000
0110
1000
,
0001
0000
0000
1000
0000
0000
0001
0000
0000
1000
0000
0000
0011
0000
0100
0000
0010
0000
1000
0000
0000
0100
0000
0000
,
0010
0100
0001
1000
0010
0100
0001
0010
,
0100
0000
0010
0000
0100
0000
0001
0000
0000
0100
0000
0000
0011
0000
0000
0000
0000
0000
1010
0000
0000
0110
0000
0000
,
0000
0101
0011
1001
0110
0000
1000
0000
,
0101
0000
0010
0000
0001
0000
0100
0000
0000
0000
0000
0000
1010
0000
0100
0000
1000
0000
0001
0000
0000
0100
0000
0000
,
0010
0100
0001
0010
0100
0010
0001
0100
,
0010
0000
0100
0000
1000
0000
0010
0000
0000
0100
0000
0000
0101
0000
0000
0000
0000
0000
1001
0000
0000
0101
0000
0000
,
0000
1010
1100
1010
1100
0000
0010
0000
,
1010
0000
0100
0000
0100
0000
0001
0000
0000
0000
0000
0000
1100
0000
0100
0000
0010
0000
0001
0000
0000
0010
0000
0000
,
0100
0010
0100
0001
0100
1000
0100
0010
,
0100
0000
0010
0000
0100
0000
0001
0000
0000
1000
0000
0000
0110
0000
0000
0000
0000
0000
0110
0000
0000
0011
0000
0000
,
0000
1100
1010
0110
0101
0000
0100
0000
,
1001
0000
0100
0000
0010
0000
0001
0000
0000
0000
0000
0000
1001
0000
0010
0000
0100
0000
1000
0000
0000
0100
0000
0000
,
0010
0100
0001
0100
0010
0001
0010
0100
,
0001
0000
0100
0000
0010
0000
0001
0000
0000
0010
0000
0000
1010
0000
0000
0000
0000
0000
0110
0000
0000
1001
0000
0000
,
0000
0011
0110
1100
0110
0000
0001
0000
,
0011
0000
1000
0000
1000
0000
0001
0000
0000
0000
0000
0000
0110
0000
0010
0000
0100
0000
0001
0000
0000
0010
0000
0000
,
0100
0010
0001
1000
0000
0000
0001
0000
0000
0000
0000
0000
0010
0100
1000
0001
0000
0000
0010
0000
0000
0000
0000
0000
,
1100
0000
0010
0000
0100
0000
0010
0000
0000
0000
0000
0000
0001
0010
0100
1000
0000
0000
0001
0000
0000
0000
0000
0000
,
1000
0100
0010
0001
0000
0000
1000
0000
0000
0000
0000
0000
0100
0010
1000
0001
0000
0000
0100
0000
0000
0000
0000
0000
,
0110
0001
1000
0010
0000
0000
0110
1000
0001
0010
0000
0000
,
1000
0100
0001
0010
0000
0000
1000
0000
0000
0000
0000
0000
0001
0010
1000
0100
0000
0000
0001
0000
0000
0000
0000
0000
,
1100
0000
0001
0000
0100
0000
0010
0000
0000
0000
0000
0000
1000
0100
0010
0001
0000
0000
0010
0000
0000
0000
0000
0000
,
0001
0010
0100
1000
0000
0000
0100
0000
0000
0000
0000
0000
1000
0100
0010
0001
0000
0000
1000
0000
0000
0000
0000
0000
,
1100
0100
0010
0011
0000
0000
0110
1000
0100
0010
0000
0000
,
1000
0100
0010
0001
0000
0000
1000
0000
0000
0000
0000
0000
1000
0100
0010
0001
0000
0000
1000
0000
0000
0000
0000
0000
,
1001
0000
0100
0000
0010
0000
0001
0000
0000
0000
0000
0000
1000
0100
0010
0001
0000
0000
1000
0000
0000
0000
0000
0000
,
1000
0100
0010
0001
0000
0000
1000
0000
0000
0000
0000
0000
1000
0100
0010
0001
0000
0000
1000
0000
0000
0000
0000
0000
,
0011
0100
1000
0100
0000
0000
0011
0100
1000
0100
0000
0000
,
0010
0100
0010
0001
0000
0000
1000
0000
0000
0000
0000
0000
0010
0100
0010
0001
0000
0000
1000
0000
0000
0000
0000
0000
,
1100
0000
0010
0000
0100
0000
1000
0000
0000
0000
0000
0000
0001
0010
0001
1000
0000
0000
0100
0000
0000
0000
0000
0000
,
0001
0010
0001
1000
0000
0000
0100
0000
0000
0000
0000
0000
0001
0010
0001
1000
0000
0000
0100
0000
0000
0000
0000
0000
,
1001
0100
0100
0011
0000
0000
1000
0010
0100
0001
0000
0000
,
1000
0100
0010
0100
1000
0100
0010
0100
0010
0001
0010
0100
,
0010
0000
0000
1000
0100
0010
0001
0000
0000
0000
0000
0000
0000
0000
0000
0000
0000
0000
1000
0000
0000
0100
0000
0000
,
1000
0100
0000
0001
0100
0000
0001
0000
,
0000
1000
0100
0000
0000
0110
0000
1001
;
